&title=JACKY [Remix]
&artist=「バーチャファイター」
&wholebpm=135
&demo_seek=15.8
&demo_len=14.7
&lv_1=2
&lv_2=4
&lv_3=7
&lv_4=11
&lv_5=13+
&lv_6=13+
&des_4=譜面-100号
&des_5=ニャイン
&des_6=すきやき奉行
&inote_1=(135.0){1},
{4},,,1,
{4},,,2,
{4},,,1,
{4},,,8,
{4},,,7,
{4},,,8,{1},
{1}8-5[2:1],,
{2}2,2,{1},
{2}8,8,{1},
{2}7,7,{1},
{4}8,,1,1b,
{1}1,
{1}2,
{1}3,
{1}4,
{1}5,
{1}6,
{1}7,
{1}8,
{1}2-7[2:1],,
{1}6-3[2:1],,
{1}2h[1:1],
{4},,,1b,
{4},8,,8,
{4},7,,7,
{4},8,,8,
{4},1,,1,
{4},1,,1,
{4},2,,2,
{4},1,,1,
{4},8,,8b,
{4},7,,7,
{4},6,,6,
{4},7,,7,
{4},8,,8,
{4},1,,1,
{4},2,,2,
{4},1,,1,
{4},,,7/2,
{4},2/7,,,{1},
{4},,,8b,
E
&inote_2=(135.0){1},
{4},1,,1,
{4},2,,2,
{4},1,,1,
{4},8,,8,
{4},7,,7,
{4},6,,6,
{4},7,,7,
{4},8,,8b,
{4},2h[2:1],,,
{4},2,,1,
{4},8h[2:1],,,
{4},8,,7,
{4},6h[2:1],,,
{4},6,,5,
{4},4/5,,6/3,
{4},2/7,,1b,
{4},8,8,8,
{4},7,7,7,
{4},6,6,6,
{4},7,,1/8,
{4},1,1,1,
{4},2,2,2,
{4},3,,4,
{4},3,2,1b,
{4},7h[500:249],,,
{1}6-3[2:1],
{4},2h[2:1],,,
{1}1-4[2:1],
{4},5,,6,
{4},7,,8,
{4},1,1,1,
{4},2,2,2,
{4},1,1,1,
{4},8,,1/8,
{4},8,8,8,
{4},7,7,7,
{4},1,1,1,
{4}2,,,1/8,
{4},2,2,2,
{4},8,8,8,
{4},1,1,1,
{8},,8,,,,7,7,
{4},6,6,6,
{4},4,4,4,
{4},2,2,2,
{4}1,,,8/1,
{4},2/7,,,
{2},5-1[4:1],
{4},,8,8b,
E
&inote_3=(135.0){1},
{4},,,1,
{4},,,2,
{4},,,1,
{4},,,8,
{4},8,,7,
{4},6,,7,
{4},1/8,,7/2,
{4}1,2,3,4,
{1}5-2[2:1],
{1}8h[4:3],
{1}7-4[2:1],
{8}1,,2,2,,1,,,
{1}8-4[2:1],
{1}2h[4:3],
{8}1/8,,,2/7,,,3/6,,
{4}5,6,2h[4:1],8b,
{8}7,,1,1,,2,2,,
{8}2,,8,8,,7,7,,
{8}7,,1,1,,2,2,,
{8}8,,7,,1,1,1b,,
{8}7,,1,1,,2,2,,
{8}2,,8,8,,7,7,,
{1}5h[4:3]/6h[4:3],
{16}4,,,3,,,2,,1-5[4:1],,,,,,,,
{1}8h[4:3],
{4},8,,7,
{1}7h[4:3],
{4},7,,6-1[2:1],
{4},,,2-5[2:1],{1},
{4},5,6,6-1[8:1],
{8},,8,,7,,8,8,
{4},8,1,2,
{8}8,7,6,,7h[8:3],,8,1b,
{4},4,3,3-8[8:1],
{8},,1,,2,,1,1,
{4},1,8,7^2[4:1],
{4},,6/3,8/1,
{4}7,7/8,7,7/8,
{8}1,,1/2,,8/2h[4:1],,7,7,
{4},1/2,2,1/2,
{8}2,,8h[4:1],,7h[4:1],,6,6,
{4},2/1,2,2/1,
{8}8,,8/7,,1/7h[4:1],,2,2,
{4},8/7,7,1-4[4:1],
{4},,8,7b/8b,
{4}1,2b/1b,3-8[2:1],,
{2},6-1[2:1],
{4},,8,1b/8b,
E
&inote_4=(135.0){1},
{8}6,,5,,8,1,2,,
{8}3,,4,,1,8,7,7,
{8}6,,5,,8,1,2,,
{8}3,,4,,1,8,2,1,
{8}8,,7,,2,3,4,,
{8}1,,2,,7,6,7,6,
{8}5,5,6,4,4,3,5,5,
{4}6,5,4,3,
{8},,2/8,,1,6,7h[2:1],,
{8},,6,,4,3,6,5,
{8},,1/7,,8,3,2h[2:1],,
{4}3,7h[2:1],6,2,
{8},,8,2,7,1,3h[2:1],,
{8},,1,8,6,8,1,,
{8}8,7,7,1,2,2,8,7,
{8}7,8,1,2,7,8,1,2,
{16},,1,8,,,1,8,,,1,8,7h[4:1],,,,
{16},,8,1,,,8,1,,,8,1,2h[4:1],,,,
{16},,1,8,,,1,8,,,1,8,7h[4:1],,,,
{8}6,5,4,3,6,5,4,3,
{16},,2,3,,,3,4,,,4,5,6h[4:1],,,,
{16},,7,6,,,6,5,,,5,4,3h[4:1],,,,
{16}2h[16:3],,,3,,,7h[16:3],,,6,,,3,,6,,
{16}7,,,8,,,1,,5b/4b,,,,5b/4b,,,,
{1}4-1[4:1]/5-8[4:1],
{16},,,,,,,,,,8,6,2,,,,
{16}4/5,,,4-1[4:1]/5-8[4:1],,,,,,,,,,,,,
{16},,,,,,,,,,1,3,7,,,,
{16}4/5,,,,,4/5,,,4/5,,,4-1[4:1]/5-8[4:1],,,,,
{16},,,,,,,4/5,,4,5,,4/5,,5/4,,
{8},,4b/5b,3,4,6,5,6,
{8}4/5,5,6h[4:1],,7h[4:1],,8h[4:1],,
{8}6,5,3,4,3,6,5,4/5,
{8}2,3,1h[4:1],,2h[4:1],,3h[4:1],,
{8}4,5,7,6,7,3,4,4/5,
{8}4/5,4,3h[4:1],,2h[4:1],,1h[4:1],,
{16}4,,5,,3,3,,2,2,,1,1,,,,,
{16}8,8,,,1,1,,,8,1,2,3,4b/5b,,,,
{8}4/5,3,1,2,1,8,7,1,
{8}8,7,6h[4:1],,7h[4:1],,8h[8:1],7,
{8}4/5,6,8,7,8,1,2,8,
{8}1,2,1h[4:1],,2h[4:1],,3h[8:1],4,
{16}4/5,,,,5,,6,,3,,4,,5,,5,5,
{16},,,,4,,3,,6,,5,,4,,4,4,
{16},,5,,6,6,,7,7,,8,8,,,,,
{16}1,1,,,8,8,,,1,8,7,6,4b/5b,,,,
{16}8,1,2,3,4b/5b,,,,
{2}4-1[4:5]/5-8[4:5],{1},
{16},,,,,,,,,6,3,3,4b/5b,
E
&inote_5=(135.0){1},
{16}5^2[8:1],,6,,,,1-5[8:1],1,,,,,2b,,,,
{16}8^3[8:1],,7,,,,4,4,,,,,,,,,
{16}4^7[8:1],,3,,,,8-4[8:1],8,,,,,7b,,,,
{16}1^6[8:1],,2,,,,5,5,,,4,5,6,7,8,1,
{16}8^3[8:1],,7,,,,4-8[8:1],4,,,,,7b,,,,
{16}1^6[8:1],,2,,,,5,5,,,3,3,2-6[8:1],,2,,
{16}7-3[8:1],7,,1,1,,8,8,,,,,1-6[8:1],,,,
{4}8-3[8:1],2-5[8:1],7-4[8:1],,
{16}1b,,,,8,7,,8,,1,2,,3-8[1000:123],,,,
{8},7-4[8:1],,3^8[8:1],,7^4[8:1],,,
{16}1b,,,,1,2,,1,,8,7,,8^5[8:1],,1,,
{16}8-4[8:1],,,,,,8^3[8:1],,,,,,,,4,4,
{16},,,,8,7,,8,,1,2,,3-8[1000:123],,,,
{8},7-4[8:1],,3^8[8:1],,7^4[8:1],,,
{16}3,2,,2,,1,8,7,,7,,8,1,2,,8,
{16}7,,8,,1,,2,,1,8,7,6,
{641}7,,,,,,,,,,,,,,,,,,,,
{639}8,,,,,,,,,,,,,,,,,,,,1,,,,,,,,,,,,,,,,,,,,
{641}2,,,,,,,,,,,,,,,,,,,,3,,,,,,,,,,,,,,,,,,,,
{639}4,,,,,,,,,,,,,,,,,,,,5,,,,,,,,,,,,,,,,,,,,
{641}6,,,,,,,,,,,,,,,,,,,,
{16}7-4[8:1],,,,2,,2-5[8:1],,,8,8-4[8:1],,,,,,
{16}2-5[8:1],,,,7,,7-4[8:1],,,1,1-5[8:1],,,,,,
{16}7-4[8:1],,,,2,,2-5[8:1],,,8,8-4[8:1],,,,,,
{16}3,2,,2,1,2,,2,3,4,5,6,,7,,,
{16}7-4[8:1],,,,2,,2-5[8:1],,,8,8-4[8:1],,,,,,
{16}2-5[8:1],,,,7,,7-4[8:1],,,1,1-5[8:1],,,,,,
{16}8,,,6/2,,,1,,,7/3,,,4/6,,,,
{16}5,,,2,,,8,,8/1,,,,7/8^3[4:1],,,,
{4},4,,5,
{4},6,,8/7^4[4:1],
{4},3,,2,
{4},1,,8,
{16}6,,,,,7,7,,8,,,1,,2,2,,
{16}1,,8,,,1,2,3,4,5,,6^3[4:1],5,,6,,
{16},,,,8,7,,1,,2,3,,2,,1/8,,
{16}7^2[16:1],,,,
{993}7^4[16:1],,,,,,,,,,,,,,,,,,,,,,,,,,,,,,,,,,,,,,,,,,,,,,,,,,,,,,,,,,,,,,,,,,,,,,,,,,,,,,,,,,,,,,,,,,,,,,,,,,,,,,,,,,,,,,,,,,,,,,,,,,,,
{999}3,,,,,,,,,,,,,,,,,,,,,,,,,,,,,,,,,,,,,,,,,,,,,,,,,,,,,,,,,,,,,,,,,,,,,,,,,,,,,,,,,,,,,,,,,,,,,,,,,,,,,,,,,,,,,,,,,,,,,,,,,,,,,
{8}8^3[16:1],3,,4,
{16},,,,6,5,,6,,8,1,,2,,1,,
{16}8,,1/7,,2/8,,,,1,,,8,8,,7,,
{16},,,,1,2,,8,,7,6,,7,,8/1,,
{8}2^7[16:1],,2^5[16:1],6,1^6[16:1],6,,5,
{16},,,,2,2,,8,8,,1,2,3,,2,2,
{16}1,1,,8,7,8,,1,2,1,8,7,6h[4:1],,,,
{16}5b,,,,3-8[8:1],3,,7,6-1[8:1],,6,,,,,,
{8}4/7^2[16:1],,7^4[16:1],3,8^3[16:1],3,,4,
{16},,,,2-6[8:1],1,,8,8-4[8:1],,7,,1-5[8:1],,,7,
{8}7-3[8:1],,2^7[8:1],,6-1[16:1],2^5[16:1],,,
{16},,,,6-1[8:1],6,,2,3-8[8:1],,3,,,,,,
{8}5/2^7[16:1],,2^5[16:1],6,1^6[16:1],6,,5,
{16},,,,3-8[16:1],,8<3[16:1],,,,,,4,,2,2,
{16}1,1,,8,7,8,,1,2,1,8,7,6h[4:1],,,,
{16}7,8,1,2,3b,,,,2h[1:2]/1-6[8:1],,,,,,,,
{2}6-3[8:1],3-7[8:1],
{16}8-5[8:1],,,,,,,,1b,8b,7b,6b,5b,
E
&inote_6=(135.0){1},
{16}3^8[8:1],4,,4,3,,7-3[8:1],7,,,1,,2,,3,,
{16}2^5[8:1],1,,1,2,,8-4[8:1],8,,,7b,,,,,,
{16}6^1[8:1],5,,5,6,,2-6[8:1],2,,,8,,7,,6,,
{16}7^4[8:1],8,,8,7,,3,3h[16:5],,,4,5,6,7,8,1,
{16}2-6[8:1],2,,5,5,,7-3[8:1],7,,,6,,5,,4,,
{16}3-7[8:1],3,,8,8,,6-2[8:1],6,,,1,1,8,,7,,
{16}6,6h[16:3],,5,5h[16:3],,4,4h[16:3],,3,3,,2-5[8:1],,,,
{8}6-1[8:1],7,3-8[8:1],2,7-4[8:1],6,1,,
{16}1b/8b,,,,8,7,,8,,1,2,,3/4,,,,
{16}5,,7^4[8:1],,3,3,,2-7[8:1],,3,3,,6-3[8:1],,4,,
{16}2,,,,1,2,,1,,8,7,,8^5[8:1],,1,,
{16}8-4[8:1],,,,8,,1^4[8:1],,,,1-5[8:1],,,,6,6,
{16},,,,1,2,,1,,8,7,,5/6,,,,
{16}4,,2^5[8:1],,6,6,,7-2[8:1],,6,6,,3-6[8:1],,5,,
{16}8,8,,1,,2,3,4,,7,,8,1,2,,8,
{16}7,,8,,1,,2,,1,8,7,6,
{641}7,,,,,,,,,,,,,,,,,,,,
{639}8,,,,,,,,,,,,,,,,,,,,1,,,,,,,,,,,,,,,,,,,,
{641}2,,,,,,,,,,,,,,,,,,,,3,,,,,,,,,,,,,,,,,,,,
{639}4,,,,,,,,,,,,,,,,,,,,5,,,,,,,,,,,,,,,,,,,,
{641}6,,,,,,,,,,,,,,,,,,,,
{16}7-2[8:1],,1,1,7-3[8:1],,1,1,7^4[8:1],,1,1,7,,,,
{16}2-7[8:1],,8,8,2-6[8:1],,8,8,2^5[8:1],,8,8,2,,8,,
{16}7-2[8:1],,1,1,7-3[8:1],,1,1,7^4[8:1],,1,1,7,,,,
{16}2,2,,1,8,1,,2,3,4,5,6,,4/7,,,
{16}2-7[8:1],,8,8,2-6[8:1],,8,8,2^5[8:1],,8,8,2,,,,
{16}7-2[8:1],,1,1,7-3[8:1],,1,1,7^4[8:1],,1,1,7,,1,,
{16}2,,,3/5,,,7,,,4/6,,,2/5,,,4/7,
{16}4/7,,,6-2[8:1],,,3,,4-8[4:1],,,,8^3[4:1],,,,
{4},4,,5,
{16}6,,6,,5,5,5,5,,,,,2/1^6[4:1],,,,
{4},5,,4,
{16}3,,3,,4,4,4,4,,,,,7/8,,,,
{16}6,,,,,7,7,,8,,,1,,2,2,,
{16}1,,8h[16:3],,,1,2,3,4,5,,6,5,,4/7,,
{16}8b,8b,8b,8b,3,4,,2/5,,7,8,,1/6,,3/8,,
{16}2h[4:1],,1,,8-4[8:1],7,6,,5-1[8:1],6,7,,8,7,6,,
{16}2,,2/4,,6,5,,4/7,,2,1,,3/8,,6/1h[4:1],,
{8}5,8h[4:1],4,1,6-1[8:1],1-4[8:1],,3,
{16}2,,2/5,,6,5,,4/7,,2,1,,3/8,,1/6,,
{16}7h[4:1],,8,,1-5[8:1],2,3,,4-8[8:1],3,2,,1,2,3,,
{16}7,,5/7,,3,4,,6,5,,8,1,2,,1,8,
{16}7,6,,1,2,3,,6,4b/7b,4b/7b,4b/7b,4b/7b,3b/8b,,,,
{16}2/5,,,,7,7h[4:1],,6,,2,2h[4:1],,3,,5,,
{16}7^2[8:1],,3,,7^4[8:1],4,4,,8^3[8:1],1,1,,8,6,6,,
{16}4/7,,8,,1,1h[16:5],,2,,3,3h[16:5],,4,,5-8[8:1],5,
{16},6,,7,7^2[8:1],,1,,3^6[8:1],,,,8,,8,,
{16}4/7,,,,2,2h[4:1],,3,,7,7h[4:1],,6,,4,,
{16}2^7[8:1],,6,,2^5[8:1],5,5,,1^6[8:1],8,8,,1,3,3,,
{16}2/5,,6,,7,7h[16:3],,5,5,,4/8,3/7,2/6h[4:1],,8,1,
{16}2,3,,8,7,6,,3,2b/5b,2b/5b,2b/5b,2b/5b,1b/6b,,,,
{16}4b/7b,4b/7b,4b/7b,4b/7b,3b/8b,,,,,,,,3/4,,,,
{16},,,,5/6,,,,3/6,,3/6,,4/5,4/5,4/5,4/5,
{16},,,,6,,,,1b/8b,2b/7b,3b/6b,4b/5b,1b,
E
